x1080x.com

 

 

搜索
x1080x.com 论坛 AI视界(一区) [日本][破解][4K](1i/30.60GB) TEK-071 快感 三上悠亜 ...
查看: 20809| 回复: 13
go

[4K60fps-无码破解] [日本][破解][4K](1i/30.60GB) TEK-071 快感 三上悠亜

Rank: 5Rank: 5Rank: 5Rank: 5Rank: 5

UID
3211902 
帖子
454 
积分
550 
金币
550  
点数
47527  
赞助
4  
阅读权限
95 
在线时间
0 小时 
注册时间
2023-10-4 
最后登录
2024-5-10 
发表于 2023-10-5 13:03 |显示全部帖子
本帖最后由 attnbfdt 于 2023-10-5 13:03 编辑
  1. 識別碼: TEK-071

  2. 發行時間: 2016-01-01

  3. 長度: 180分鐘

  4. 制作商: MUTEKI

  5. 發行商: MUTEKI

  6. 類別:

  7. 巨乳 單體作品 偶像藝人 美少女 高畫質













  1. [濾鏡使用列表]
  2.   (1) Built-in MP4 Source
  3.   (2) Built-in Video Codec/Transform
  4.   (3) Enhanced Video Renderer(Custom Present)
  5.   (4) Built-in Audio Codec/Transform
  6.   (5) DirectSound Audio Renderer

  7. [視頻信息]
  8.   輸入格式: AVC1(24 bits)
  9.   輸入尺寸: 3840 × 2160(1.78:1)
  10.   輸出格式: dxva
  11.   輸出尺寸: 3840 × 2160(1.78:1)
  12.   幀率: 60
  13.   BitRate: 未知

  14. [音頻信息]
  15.   音頻編碼: AAC(0xaac0) - 內置 FFmpeg 解碼器(aac)
  16.   採樣率: 44100 -> 44100 Hz
  17.   位率: 16 -> 16 位
  18.   聲道數: 2 -> 2 聲道
  19.   Bitrate: 128 kbps
  20. General
  21. Format                         : MPEG-4
  22. Format profile                 : Base Media
  23. Codec ID                       : isom (isom/iso2/avc1/mp41)
  24. File size                      : 30.7 GiB
  25. Duration                       : 3 h 0 min
  26. Overall bit rate mode          : Variable
  27. Overall bit rate               : 24.4 Mb/s
  28. Frame rate                     : 60.000 FPS
  29. minor_version                  : 512
  30. major_brand                    : isom
  31. compatible_brands              : isomiso2avc1mp41
  32. videoai                        : Slowmo 100% and framerate changed to 60 using apo-8 ignoring duplicate frames. Enhanced using ahq-12and recover original detail at 20. Changed resolution to 3840x2160
  33. encoder                        : Lavf60.4.100

  34. Video
  35. ID                             : 1
  36. Format                         : AVC
  37. Format/Info                    : Advanced Video Codec
  38. Format profile                 : [email protected]
  39. Format settings                : CABAC / 4 Ref Frames
  40. Format settings, CABAC         : Yes
  41. Format settings, Reference fra : 4 frames
  42. Codec ID                       : avc1
  43. Codec ID/Info                  : Advanced Video Coding
  44. Duration                       : 3 h 0 min
  45. Bit rate mode                  : Variable
  46. Bit rate                       : 24.3 Mb/s
  47. Maximum bit rate               : 72.0 Mb/s
  48. Width                          : 3 840 pixels
  49. Height                         : 2 160 pixels
  50. Display aspect ratio           : 16:9
  51. Frame rate mode                : Constant
  52. Frame rate                     : 60.000 FPS
  53. Color space                    : YUV
  54. Chroma subsampling             : 4:2:0
  55. Bit depth                      : 8 bits
  56. Scan type                      : Progressive
  57. Bits/(Pixel*Frame)             : 0.049
  58. Stream size                    : 30.5 GiB (99%)
  59. Codec configuration box        : avcC

  60. Audio
  61. ID                             : 2
  62. Format                         : AAC LC
  63. Format/Info                    : Advanced Audio Codec Low Complexity
  64. Codec ID                       : mp4a-40-2
  65. Duration                       : 3 h 0 min
  66. Bit rate mode                  : Constant
  67. Bit rate                       : 128 kb/s
  68. Channel(s)                     : 2 channels
  69. Channel layout                 : L R
  70. Sampling rate                  : 44.1 kHz
  71. Frame rate                     : 43.066 FPS (1024 SPF)
  72. Compression mode               : Lossy
  73. Stream size                    : 165 MiB (0%)
  74. Default                        : Yes
  75. Alternate group                : 1
高級VIP及以上級別會員半價下載優惠(6點數):
[email protected] (376 Bytes , 下载次数: 206 , 售价: 点数 6 )
其他會員全價購買後下載(12點數):

[email protected] (376 Bytes , 下载次数: 17 , 售价: 点数 12 )

UID
2984100 
帖子
2 
积分
374 
金币
374  
点数
0  
赞助
1  
阅读权限
10 
在线时间
165 小时 
注册时间
2021-6-23 
最后登录
2024-5-17 
发表于 2023-10-7 14:22 |显示全部帖子
链接失效了

Rank: 3Rank: 3Rank: 3

UID
3018009 
帖子
1 
积分
483 
金币
483  
点数
127  
赞助
2  
阅读权限
85 
在线时间
468 小时 
注册时间
2021-11-2 
最后登录
2024-5-18 
发表于 2023-10-8 00:47 |显示全部帖子
下载不了

Rank: 5Rank: 5Rank: 5Rank: 5Rank: 5

UID
3211902 
帖子
454 
积分
550 
金币
550  
点数
47527  
赞助
4  
阅读权限
95 
在线时间
0 小时 
注册时间
2023-10-4 
最后登录
2024-5-10 
发表于 2023-10-8 10:10 |显示全部帖子
测试正常 2023.10.08 10:10

Rank: 4Rank: 4Rank: 4Rank: 4

UID
338720 
帖子
29 
积分
1616 
金币
1616  
点数
270  
赞助
3  
阅读权限
90 
在线时间
1332 小时 
注册时间
2012-8-13 
最后登录
2024-5-17 

永久VIP 年费VIP 高级会员 正式会员

发表于 2023-10-10 00:33 |显示全部帖子

Rank: 4Rank: 4Rank: 4Rank: 4

UID
2827758 
帖子
3 
积分
757 
金币
757  
点数
0  
赞助
3  
阅读权限
90 
在线时间
523 小时 
注册时间
2018-3-4 
最后登录
2024-5-16 
发表于 2023-10-14 23:13 |显示全部帖子
点数怎么获得?

点评

区二  https://www.x567x.me/vip/ds.html当然也可以充值购买  发表于 2023-10-14 23:58
区二  https://www.x567x.me/forum.php?mod=forumdisplay&fid=229这个板块可以卖资源赚点数  发表于 2023-10-14 23:58
区二  售卖资源或者充值  发表于 2023-10-14 23:57

Rank: 4Rank: 4Rank: 4Rank: 4

UID
3162920 
帖子
4 
积分
166 
金币
166  
点数
0  
赞助
3  
阅读权限
90 
在线时间
160 小时 
注册时间
2023-3-10 
最后登录
2024-5-1 
发表于 2023-10-21 19:37 |显示全部帖子
請問購買後要用甚麽網盤下載?

Rank: 4Rank: 4Rank: 4Rank: 4

UID
3039673 
帖子
3 
积分
305 
金币
305  
点数
12  
赞助
3  
阅读权限
90 
在线时间
338 小时 
注册时间
2022-1-9 
最后登录
2024-5-17 
发表于 2023-10-22 19:21 |显示全部帖子
不能下载

UID
2902394 
帖子
1 
积分
186 
金币
186  
点数
73  
赞助
2  
阅读权限
10 
在线时间
96 小时 
注册时间
2020-4-7 
最后登录
2024-2-7 
发表于 2023-10-30 02:29 |显示全部帖子
百姬丶酱 发表于 2023-10-7 14:22
链接失效了

失效了

Rank: 4Rank: 4Rank: 4Rank: 4

UID
2556149 
帖子
5 
积分
727 
金币
727  
点数
54  
赞助
3  
阅读权限
90 
在线时间
0 小时 
注册时间
2017-9-24 
最后登录
2024-5-16 

年费VIP 永久VIP 高级会员 正式会员

发表于 2024-1-4 23:15 |显示全部帖子
下载不了呀

Archiver|x1080x.com © 2011-2024
18 U.S.C. 2257 Record-Keeping Requirements Compliance Statement

警告:本網站為限制級網站,已依台灣網站內容分級規定處理。僅對年滿18周歲或以上的海外華人開放,未滿18周歲或當地國家不允許謝絕瀏覽。

GMT+8, 2024-5-18 19:19 , Processed in 0.041596 second(s), 15 queries .

Powered by Discuz! X1.5

© 2001-2010 Comsenz Inc.