x1080x.com

 

 

搜索
x1080x.com 论坛 AI视界(一区) [日本][流出][4K](1i/21.30GB) SHYN-102 ほろ酔い女子社 ...
查看: 11480| 回复: 4
go

[4K60fps-无码流出] [日本][流出][4K](1i/21.30GB) SHYN-102 ほろ酔い女子社員「疲れた女は酒に弱い」退勤後に酒で●っぱらい、淫らにスーツを脫ぎ捨てる意外とエロい女子社員のプライベートSEXを収録! あなたもき

Rank: 5Rank: 5Rank: 5Rank: 5Rank: 5

UID
3211902 
帖子
454 
积分
550 
金币
550  
点数
47455  
赞助
4  
阅读权限
95 
在线时间
0 小时 
注册时间
2023-10-4 
最后登录
2024-5-10 
发表于 2023-11-11 13:12 |显示全部帖子
本帖最后由 attnbfdt 于 2023-11-11 18:48 编辑
  1. 識別碼: SHYN-102

  2. 發行日期: 2020-02-28

  3. 長度: 82分鐘

  4. 導演: 小松(17)

  5. 製作商: SODクリエイト

  6. 發行商: SOD女子社員

  7. 系列: ほろ酔い女子社員

  8. 類別:

  9. 高畫質 單體作品 其他戀物癖 口交 業餘 OL 第一人稱攝影

  10. 演員:

  11. 菜月ゆかり












  1. [濾鏡使用列表]
  2.   (1) Built-in MP4 Source
  3.   (2) Built-in Video Codec/Transform
  4.   (3) Enhanced Video Renderer(Custom Present)
  5.   (4) Built-in Audio Codec/Transform
  6.   (5) DirectSound Audio Renderer

  7. [視頻信息]
  8.   輸入格式: AVC1(24 bits)
  9.   輸入尺寸: 3840 × 2160(1.78:1)
  10.   輸出格式: dxva
  11.   輸出尺寸: 3840 × 2160(1.78:1)
  12.   幀率: 60
  13.   BitRate: 未知

  14. [音頻信息]
  15.   音頻編碼: AC3(0x2000) - 內置 FFmpeg 解碼器(ac3)
  16.   採樣率: 48000 -> 48000 Hz
  17.   位率: 16 -> 16 位
  18.   聲道數: 2 -> 2 聲道
  19.   Bitrate: 320 kbps
  20. General
  21. Format                         : MPEG-4
  22. Format profile                 : Base Media
  23. Codec ID                       : isom (isom/dby1/iso2/avc1/mp41)
  24. File size                      : 21.3 GiB
  25. Duration                       : 1 h 21 min
  26. Overall bit rate mode          : Variable
  27. Overall bit rate               : 37.2 Mb/s
  28. Frame rate                     : 60.000 FPS
  29. minor_version                  : 512
  30. major_brand                    : isom
  31. compatible_brands              : isomiso2avc1mp41
  32. videoai                        : Slowmo 100% and framerate changed to 60 using apo-8 ignoring duplicate frames. Enhanced using ahq-12; and recover original detail at 20. Changed resolution to 3840x2160
  33. encoder                        : Lavf60.14.101

  34. Video
  35. ID                             : 1
  36. Format                         : AVC
  37. Format/Info                    : Advanced Video Codec
  38. Format profile                 : [email protected]
  39. Format settings                : CABAC / 4 Ref Frames
  40. Format settings, CABAC         : Yes
  41. Format settings, Reference fra : 4 frames
  42. Format settings, GOP           : M=4, N=30
  43. Codec ID                       : avc1
  44. Codec ID/Info                  : Advanced Video Coding
  45. Duration                       : 1 h 21 min
  46. Source duration                : 1 h 21 min
  47. Bit rate mode                  : Variable
  48. Bit rate                       : 36.8 Mb/s
  49. Maximum bit rate               : 120 Mb/s
  50. Width                          : 3 840 pixels
  51. Height                         : 2 160 pixels
  52. Display aspect ratio           : 16:9
  53. Frame rate mode                : Constant
  54. Frame rate                     : 60.000 FPS
  55. Color space                    : YUV
  56. Chroma subsampling             : 4:2:0
  57. Bit depth                      : 8 bits
  58. Scan type                      : Progressive
  59. Bits/(Pixel*Frame)             : 0.074
  60. Stream size                    : 21.1 GiB (99%)
  61. Source stream size             : 21.1 GiB (99%)
  62. Codec configuration box        : avcC

  63. Audio
  64. ID                             : 2
  65. Format                         : AC-3
  66. Format/Info                    : Audio Coding 3
  67. Commercial name                : Dolby Digital
  68. Codec ID                       : ac-3
  69. Duration                       : 1 h 21 min
  70. Bit rate mode                  : Constant
  71. Bit rate                       : 320 kb/s
  72. Channel(s)                     : 2 channels
  73. Channel layout                 : L R
  74. Sampling rate                  : 48.0 kHz
  75. Frame rate                     : 31.250 FPS (1536 SPF)
  76. Compression mode               : Lossy
  77. Stream size                    : 187 MiB (1%)
  78. Service kind                   : Complete Main
  79. Default                        : Yes
  80. Alternate group                : 1
高級VIP及以上級別會員半價下載優惠(6點數):
[email protected] (269 Bytes , 下载次数: 34 , 售价: 点数 6 )
其他會員全價購買後下載(12點數):

[email protected] (269 Bytes , 下载次数: 2 , 售价: 点数 12 )


Rank: 4Rank: 4Rank: 4Rank: 4

UID
2874901 
帖子
86 
积分
939 
金币
939  
点数
148  
赞助
3  
阅读权限
90 
在线时间
711 小时 
注册时间
2019-11-4 
最后登录
2024-5-15 

永久VIP 年费VIP 高级会员

发表于 2023-11-11 16:57 |显示全部帖子
par1/part2/part4, 没少一个?

Rank: 5Rank: 5Rank: 5Rank: 5Rank: 5

UID
3211902 
帖子
454 
积分
550 
金币
550  
点数
47455  
赞助
4  
阅读权限
95 
在线时间
0 小时 
注册时间
2023-10-4 
最后登录
2024-5-10 
发表于 2023-11-11 18:48 |显示全部帖子
回复 sharingrose 的帖子

是多了一个,已修复

Rank: 4Rank: 4Rank: 4Rank: 4

UID
2874901 
帖子
86 
积分
939 
金币
939  
点数
148  
赞助
3  
阅读权限
90 
在线时间
711 小时 
注册时间
2019-11-4 
最后登录
2024-5-15 

永久VIP 年费VIP 高级会员

发表于 2023-11-11 22:21 |显示全部帖子
回复 attnbfdt 的帖子

点了一次。。。又扣了一次钱。。。
怎么退

Rank: 4Rank: 4Rank: 4Rank: 4

UID
2944943 
帖子
2 
积分
169 
金币
169  
点数
35  
赞助
5  
阅读权限
90 
在线时间
112 小时 
注册时间
2020-12-18 
最后登录
2024-5-11 
发表于 2023-12-5 13:55 |显示全部帖子
链接失效了,迅雷下不了

Archiver|x1080x.com © 2011-2024
18 U.S.C. 2257 Record-Keeping Requirements Compliance Statement

警告:本網站為限制級網站,已依台灣網站內容分級規定處理。僅對年滿18周歲或以上的海外華人開放,未滿18周歲或當地國家不允許謝絕瀏覽。

GMT+8, 2024-5-18 17:56 , Processed in 0.015594 second(s), 14 queries .

Powered by Discuz! X1.5

© 2001-2010 Comsenz Inc.