x1080x.com

 

 

搜索
x1080x.com 论坛 AI视界(一区) [日本][流出][4K](1i/41.70GB) ZSD-074 尻伝説 篠田ゆう ...
查看: 11541| 回复: 3
go

[4K60fps-无码流出] [日本][流出][4K](1i/41.70GB) ZSD-074 尻伝説 篠田ゆう

Rank: 5Rank: 5Rank: 5Rank: 5Rank: 5

UID
3211902 
帖子
454 
积分
550 
金币
550  
点数
47455  
赞助
4  
阅读权限
95 
在线时间
0 小时 
注册时间
2023-10-4 
最后登录
2024-5-10 
发表于 2023-12-10 12:04 |显示全部帖子
  1. 識別碼: ZSD-074

  2. 發行日期: 2013-03-28

  3. 長度: 156分鐘

  4. 導演: 工藤澪

  5. 製作商: 実録出版

  6. 發行商: 実録出版

  7. 系列: 尻伝説

  8. 類別:

  9. 高畫質 屁股 第一人稱攝影 單體作品

  10. 演員:

  11. 篠田ゆう
















  1. [滤镜使用列表]
  2.   (1) Built-in MP4 Source
  3.   (2) Built-in Video Codec/Transform
  4.   (3) Enhanced Video Renderer(Custom Present)
  5.   (4) Built-in Audio Codec/Transform
  6.   (5) DirectSound Audio Renderer

  7. [视频信息]
  8.   输入格式: AVC1(24 bits)
  9.   输入尺寸: 3840 × 2160(1.78:1)
  10.   输出格式: dxva
  11.   输出尺寸: 3840 × 2160(1.78:1)
  12.   帧率: 60
  13.   BitRate: 未知

  14. [音频信息]
  15.   音频编码: AC3(0x2000) - 内置 FFmpeg 解码器(ac3)
  16.   采样率: 48000 -> 48000 Hz
  17.   位率: 16 -> 16 位
  18.   声道数: 2 -> 2 声道
  19.   Bitrate: 320 kbps
  20. General
  21. Format                         : MPEG-4
  22. Format profile                 : Base Media
  23. Codec ID                       : isom (isom/dby1/iso2/avc1/mp41)
  24. File size                      : 41.8 GiB
  25. Duration                       : 2 h 37 min
  26. Overall bit rate mode          : Variable
  27. Overall bit rate               : 38.1 Mb/s
  28. Frame rate                     : 60.000 FPS
  29. minor_version                  : 512
  30. major_brand                    : isom
  31. compatible_brands              : isomiso2avc1mp41
  32. videoai                        : Slowmo 100% and framerate changed to 60 using apo-8 ignoring duplicate frames. Enhanced using ahq-12; and recover original detail at 20. Changed resolution to 3840x2160
  33. encoder                        : Lavf60.14.101

  34. Video
  35. ID                             : 1
  36. Format                         : AVC
  37. Format/Info                    : Advanced Video Codec
  38. Format profile                 : [email protected]
  39. Format settings                : CABAC / 4 Ref Frames
  40. Format settings, CABAC         : Yes
  41. Format settings, Reference fra : 4 frames
  42. Format settings, GOP           : M=4, N=30
  43. Codec ID                       : avc1
  44. Codec ID/Info                  : Advanced Video Coding
  45. Duration                       : 2 h 37 min
  46. Source duration                : 2 h 37 min
  47. Bit rate mode                  : Variable
  48. Bit rate                       : 37.8 Mb/s
  49. Maximum bit rate               : 120 Mb/s
  50. Width                          : 3 840 pixels
  51. Height                         : 2 160 pixels
  52. Display aspect ratio           : 16:9
  53. Frame rate mode                : Constant
  54. Frame rate                     : 60.000 FPS
  55. Color space                    : YUV
  56. Chroma subsampling             : 4:2:0
  57. Bit depth                      : 8 bits
  58. Scan type                      : Progressive
  59. Bits/(Pixel*Frame)             : 0.076
  60. Stream size                    : 41.4 GiB (99%)
  61. Source stream size             : 41.4 GiB (99%)
  62. Codec configuration box        : avcC

  63. Audio
  64. ID                             : 2
  65. Format                         : AC-3
  66. Format/Info                    : Audio Coding 3
  67. Commercial name                : Dolby Digital
  68. Codec ID                       : ac-3
  69. Duration                       : 2 h 37 min
  70. Bit rate mode                  : Constant
  71. Bit rate                       : 320 kb/s
  72. Channel(s)                     : 2 channels
  73. Channel layout                 : L R
  74. Sampling rate                  : 48.0 kHz
  75. Frame rate                     : 31.250 FPS (1536 SPF)
  76. Compression mode               : Lossy
  77. Stream size                    : 359 MiB (1%)
  78. Service kind                   : Complete Main
  79. Default                        : Yes
  80. Alternate group                : 1
高級VIP及以上級別會員半價下載優惠(6點數):
[email protected] (502 Bytes , 下载次数: 59 , 售价: 点数 6 )
其他會員全價購買後下載(12點數):

[email protected] (502 Bytes , 下载次数: 3 , 售价: 点数 12 )

Rank: 4Rank: 4Rank: 4Rank: 4

UID
2821454 
帖子
102 
积分
1279 
金币
1279  
点数
138  
赞助
3  
阅读权限
90 
在线时间
649 小时 
注册时间
2017-11-17 
最后登录
2024-5-17 
发表于 2023-12-10 20:27 |显示全部帖子
本帖最后由 nlf123 于 2023-12-10 20:47 编辑

這和前面发过的除了大小有什麼區別           https://ibbb.me/forum.php?mod=vi ... &extra=page%3D5  

Rank: 5Rank: 5Rank: 5Rank: 5Rank: 5

UID
3211902 
帖子
454 
积分
550 
金币
550  
点数
47455  
赞助
4  
阅读权限
95 
在线时间
0 小时 
注册时间
2023-10-4 
最后登录
2024-5-10 
发表于 2023-12-11 13:32 |显示全部帖子
之前那个反交错有点问题,已经告知过站长删除,可能站长忘记了

Rank: 4Rank: 4Rank: 4Rank: 4

UID
2403269 
帖子
2 
积分
1477 
金币
1477  
点数
1  
赞助
3  
阅读权限
90 
在线时间
3389 小时 
注册时间
2017-8-21 
最后登录
2024-5-18 
发表于 2023-12-19 13:54 |显示全部帖子
里面一个链接被和谐了。请查下。

Archiver|x1080x.com © 2011-2024
18 U.S.C. 2257 Record-Keeping Requirements Compliance Statement

警告:本網站為限制級網站,已依台灣網站內容分級規定處理。僅對年滿18周歲或以上的海外華人開放,未滿18周歲或當地國家不允許謝絕瀏覽。

GMT+8, 2024-5-18 17:05 , Processed in 0.014012 second(s), 13 queries .

Powered by Discuz! X1.5

© 2001-2010 Comsenz Inc.